Сияние

www.hmustaev.ru

Ёлки 2 (Дмитрий Киселёв, Александр Баранов, Александр Котт) [2011, Мелодрама, комедия, семейный, BDRip]

СКАЧАТЬ

Оценка:

Сказали спасибо: 15

Проверено антивирусом:

Ёлки 2
Жанр: Мелодрама, комедия, семейный
Год выпуска: 2011
Продолжительность: 01:40:19
Режиссёр: Дмитрий Киселёв, Александр Баранов, Александр Котт
В ролях: Сергей Светлаков, Иван Ургант, Вера Брежнева, Сергей Безруков, Владимир Меньшов, Гоша Куценко, Александр Головин, Виктор Вержбицкий, Алексей Петренко, Петр Федоров
Описание: За этот год много чего произошло, но наступит день, который всё расставит на свои места. Продолжение новогодних историй, которые происходили в жизни героев в фильме «Ёлки».
Семпл: http://multi-up.com/648991
Качество видео: BDRip
Формат видео: AVI
Видео: 704x400 (1.76:1), 23,976 fps, XviD build 65, 1675 kbps avg, 0.25 bit/pixel
Аудио: 48 kHz, AC3 Dolby Digital, 3/2 (L,C,R,l,r) + LFE ch, ~384 kbps MediaInfo Complete name : Yolki.2.2011.RUS.BDRip.XviD.AC3.-HELLYWOOD.avi
Format : AVI
Format/Info : Audio Video Interleave
File size : 1.45 GiB
Duration : 1h 40mn
Overall bit rate : 2 069 Kbps
Movie name : Елки 2 (2011) BDRip
Director : VOLKiGOR
Writing application : VirtualDubMod 1.5.10.2 (build 2540/release)
Video
ID : 0
Format : MPEG-4 Visual
Format profile : Advanced Simple@L5
Format settings, BVOP : 2
Format settings, QPel : No
Format settings, GMC : No warppoints
Format settings, Matrix : Custom
Codec ID : XVID
Codec ID/Hint : XviD
Duration : 1h 40mn
Bit rate : 1 676 Kbps
Width : 704 pixels
Height : 400 pixels
Display aspect ratio : 16:9
Frame rate : 23.976 fps
Color space : YUV
Chroma subsampling : 4:2:0
Bit depth : 8 bits
Scan type : Progressive
Compression mode : Lossy
Bits/(Pixel*Frame) : 0.248
Stream size : 1.17 GiB (81%)
Writing library : XviD 65
Audio
ID : 1
Format : AC-3
Format/Info : Audio Coding 3
Mode extension : CM (complete main)
Codec ID : 2000
Duration : 1h 40mn
Bit rate mode : Constant
Bit rate : 384 Kbps
Channel(s) : 6 channels
Channel positions : Front: L C R, Side: L R, LFE
Sampling rate : 48.0 KHz
Bit depth : 16 bits
Compression mode : Lossy
Stream size : 276 MiB (19%)
Alignment : Split accross interleaves
Interleave, duration : 42 ms (1.00 video frame)
Interleave, preload duration : 500 ms

Похожие загрузки

  1. Ёлки 2 (Дмитрий Киселёв, Александр Баранов, Александр Котт) [2011, Мелодрама, комедия, семейный, BDRip]
  2. Черные Бушлаты
  3. Подвиды 3: Жажда крови / Bloodlust: Subspecies III (1993) DVDRip
  4. Снежный день / Snow Day / 2000 / ПМ / DVDRip
  5. ПостКВН. Comedy Woman. Выпуск 12. Звёздная болезнь (ТНТ) [2009, Тв-шоу]
  6. Ballpoint Universe [L] [Arcade] [ENG] (2014) (1.04)
  7. Grotesque. Tactics 2: Dungeons and Donuts (2011) PC